#TITLE:Bad Boy Bass;
#SUBTITLE:~Paradox original~;
#ARTIST:Y&CO;
#TITLETRANSLIT:;
#SUBTITLETRANSLIT:;
#ARTISTTRANSLIT:;
#CREDIT:;
#BANNER:Bad boy bass.png;
#BACKGROUND:Bad boy bass- bg.png;
#LYRICSPATH:;
#CDTITLE:Prdx.png;
#MUSIC:Bad boy bass.mp3;
#OFFSET:-2.064;
#SAMPLESTART:77.000;
#SAMPLELENGTH:12.000;
#SELECTABLE:YES;
#DISPLAYBPM:140.000;
#BPMS:0.000=148.010;
#STOPS:;
#BGCHANGES:;
// cache tags:
#FIRSTBEAT:0.000;
#LASTBEAT:289.500;
#SONGFILENAME:Songs/Chilean Keyboard Megapack 3/(Paradox) Bad boy bass/Bad boy bass.sm;
#HASMUSIC:1;
#HASBANNER:1;
#MUSICLENGTH:123.487;
// end cache tags

//---------------dance-single - ----------------
#NOTES:
     dance-single:
     :
     Challenge:
     11:
     0.869,1.000,0.437,0.032,0.911,693.000,54.000,4.000,0.000,0.000:
0001
0000
1000
0000
0010
0000
0100
0001
1000
0000
0100
0000
0010
0000
0000
0000
,
1000
0010
0000
0000
0001
1000
0100
0000
,
1000
0000
0100
0000
0010
0000
0001
1000
0001
0000
0010
0000
0100
0000
0000
0000
,
1000
0100
0000
0000
0100
1000
0001
0000
,
1001
0000
0001
0000
0010
0000
1000
0001
1000
0000
0010
0000
0100
0000
0000
0000
,
0010
0100
0000
0000
0001
0010
0100
0000
,
1000
0000
0001
0000
0100
0000
0001
1000
0001
0000
0010
0000
0100
0000
0000
0000
,
1001
0100
0000
0000
0010
0100
1000
0000
,
0100
0000
0010
0000
0100
0000
0001
1000
0001
0000
1000
0000
0001
0000
0000
0000
,
0001
0000
1000
0000
0100
0000
1000
0010
1000
0000
0001
0000
1000
0000
0000
0000
,
0010
0000
0100
0000
0001
0000
0001
1000
0001
0000
0100
0000
0001
0000
0000
0000
,
1000
0000
0010
0000
1000
0000
0001
0010
0001
0000
1000
0000
0100
0000
0000
0000
,
0001
0000
1000
0000
0100
0000
1000
0010
0100
0000
0001
0000
1000
0000
0000
0000
,
0010
0000
1000
0000
0001
0000
1000
0100
1000
0000
0100
0000
0001
0000
0000
0000
,
1000
0000
0100
0000
1000
0000
0010
0001
0010
0000
1000
0000
0001
0000
0000
0000
,
0100
0000
0001
0000
0100
0000
0001
1000
0001
0000
0010
0000
2002
0000
0000
0000
,
0000
0000
0000
0000
3003
0000
1000
0001
,
1000
0000
0001
0100
0001
0000
1000
0010
,
1000
0000
0001
1000
0001
0000
1000
0010
,
1000
0001
0000
0000
1000
0001
0100
0000
,
1001
0110
1001
0000
0000
1100
0101
0000
,
1001
0011
1100
0000
0000
1001
1100
0000
,
0110
0011
1100
0000
0000
0011
1100
0000
,
1100
1010
0101
0000
0110
1001
0110
0000
,
1001
0000
0100
0000
0010
0000
1000
0100
0000
0000
0001
0000
0000
0000
0000
0000
,
0000
0000
0000
0000
0100
0001
1000
0000
,
1000
0000
0001
0000
1000
0000
0010
0100
0000
0000
0110
0000
0000
0000
0000
0000
,
0000
0000
0000
0000
1000
0010
0100
0000
,
0100
0000
0010
0000
0100
0000
1000
0010
0000
0000
0100
0000
0000
0000
0000
0000
,
0000
0000
0000
0000
1000
0100
1000
0000
,
0001
0000
0100
0000
0001
0000
1000
0010
0000
0000
1000
0000
0000
0000
0000
0000
,
0001
0000
1000
0000
0001
0000
0100
0010
0100
0000
1000
0000
0100
0000
0000
0000
,
1001
0000
0100
0000
0010
0000
1000
0100
0000
0000
1000
0000
0000
0000
0000
0000
,
0001
0000
1000
0000
0001
0000
0100
0010
0000
0000
0110
0000
0000
0000
0000
0000
,
1000
0000
0100
0000
1000
0000
0001
0010
0000
0000
0100
0000
0000
0000
0000
0000
,
0100
0000
0001
0000
0100
0000
0010
1000
0000
0000
0100
0000
0000
0000
0000
0000
,
1000
0000
0001
0000
0100
0000
0001
1000
0000
0000
0010
0000
0000
0000
0000
0000
,
0100
0000
0010
0000
1000
0000
0001
0100
0000
0000
0010
0000
0000
0000
0000
0000
,
0100
0000
0001
0000
1000
0000
0001
0100
0000
0000
0001
0000
0000
0000
0000
0000
,
1000
0000
0010
0000
0100
0000
0001
1000
0000
0000
0100
0000
0000
0000
0000
0000
,
1000
0001
1000
0000
0010
0100
0010
0000
,
1000
0100
1000
0000
0001
0010
0001
0000
,
1000
0001
0100
0000
0001
1000
0010
0000
,
1000
0100
1000
0000
0001
1000
0001
0000
,
0001
0100
0001
1000
0100
1000
0010
1000
,
0001
0100
0001
1000
0010
1000
0001
1000
,
0001
1000
0001
1000
0001
1000
0001
1000
0001
1000
0001
1000
0001
1000
0001
0000
,
1001
0000
0100
0000
0010
0000
1000
0100
1000
0000
0001
0000
0100
0000
0000
0000
,
0001
1000
0001
0100
0001
1000
0010
1000
0001
0100
0001
0010
0100
1000
0100
0010
,
0001
1000
0001
0010
0100
0010
0001
1000
0010
0100
0010
1000
0001
1000
0100
1000
,
0001
0100
0001
1000
0010
1000
0001
0100
0001
1000
0100
0010
0001
0010
0001
1000
,
0010
1000
0001
0100
0001
1000
0010
1000
0001
1000
0100
0010
0001
0010
0100
1000
,
0100
0010
0001
1000
0001
1000
0100
0010
0001
1000
0001
0100
0001
0100
0010
1000
,
0010
1000
0001
1000
0010
1000
0001
0100
0001
1000
0010
1000
0001
0100
0001
1000
,
0010
1000
0001
0100
0001
1000
0100
0010
0001
0010
0100
0010
0100
1000
0001
1000
,
0100
1000
0010
0100
0001
1000
0001
0100
0001
1000
0010
1000
0001
0100
0001
1000
,
0110
1000
0001
1000
0001
0100
0001
1000
0010
1000
0001
0100
0001
0100
0001
1000
,
0101
0010
0001
1000
0100
1000
0001
1000
0100
0010
0001
1000
0100
0010
0001
0100
,
1001
0100
0001
1000
0010
1000
0001
0100
0001
1000
0001
1000
0001
0100
0001
1000
,
0101
0010
0001
0010
0100
1000
0100
1000
0001
0100
0001
0010
0001
1000
0100
0010
,
1001
0100
0010
1000
0100
1000
0001
0100
0001
1000
0010
1000
0001
0100
0001
1000
,
0011
0100
0001
1000
0010
1000
0001
1000
0001
0010
0100
1000
0100
0010
0001
1000
,
1001
0100
0001
1000
0010
1000
0001
1000
0100
0010
0001
1000
0100
0010
0001
1000
,
0101
0010
0001
1000
0001
0100
0001
1000
0010
1000
0010
1000
0001
0100
0001
1000
,
0011
1000
0001
0100
0001
1000
0010
1000
1001
0100
0001
1000
0100
0010
0001
0010
,
0101
1000
0100
1000
0001
0100
0001
1000
0101
1000
0100
1000
0010
1000
0001
0100
,
1001
1000
0010
1000
0001
0010
0100
1000
0101
0010
0001
1000
0100
1000
0001
0010
,
1001
0100
0001
1000
0010
1000
0001
0100
0011
1000
0010
1000
0001
1000
0100
0010
,
1001
0010
0100
1000
0100
0010
0001
0010
0101
1000
0001
1000
0001
0010
0100
1000
,
0101
1000
0001
0100
0001
1000
0010
1000
1001
0100
0001
0010
0001
1000
0100
1000
,
0101
1000
0001
0100
0010
1000
0100
1000
1001
0100
0001
1000
0010
1000
0100
0010
,
1001
0001
0010
0100
1000
0001
0100
0001
1010
0001
1000
0010
1000
0001
0010
0100
,
2002
0000
0000
3003
0000
0000
0000
0000
;
